#TITLE:OK OK;
#SUBTITLE:(Beauty & Wild Beast);
#ARTIST:DJ Doc;
#TITLETRANSLIT:;
#SUBTITLETRANSLIT:;
#ARTISTTRANSLIT:;
#CREDIT:;
#BANNER:Ok ok-banner.png;
#BACKGROUND:ok ok-bg.png;
#LYRICSPATH:;
#CDTITLE:;
#MUSIC:ok ok.mp3;
#MUSICLENGTH:104.986;
#OFFSET:0.160;
#SAMPLESTART:1.605;
#SAMPLELENGTH:12.000;
#SELECTABLE:YES;
#BPMS:0.000=130.000;
#STOPS:;
#BGCHANGES:;
#FIRSTBEAT:4.000;

#LASTBEAT:227.000;

#SONGFILENAME:Songs/ERICth MIX 2nd Style/ok ok/okok.sm;

#HASMUSIC:1;

#HASBANNER:1;


//---------------dance-single - MANIAC----------------
#NOTES:
     dance-single:
     MANIAC:
     hard:
     7:
     0.418,0.459,0.105,0.086,0.000,287.000,11.000,9.000,0.000,0.000:

0000
0000
0000
0000
,
0000
0000
0000
0000
,
0000
0000
0000
0000
,
0000
0000
0000
0000
,
0000
0000
0000
0000
,
0000
1000
0010
1000
0100
1000
0010
0000
,
0001
0000
0100
0001
0000
0200
0000
0300
,
0000
0100
0001
0100
1000
0010
1000
2000
,
0001
0001
0001
0001
0001
3001
1000
0000
,
1000
0000
0100
0000
0010
0000
0001
0001
,
1000
0100
0010
0001
0010
0100
1000
0001
,
1000
0100
1000
0100
0010
0100
1000
0000
,
0011
0100
1010
0010
1001
0000
0000
0000
,
1000
0010
1000
0001
0010
0001
1000
0100
,
0001
0100
1000
0010
0001
0010
0100
0001
,
0100
0000
0100
0000
0001
1000
0001
0000
,
0202
0000
0000
0303
,
1000
0010
0010
0100
,
0001
0010
0010
0100
,
1000
0010
0100
0010
,
0001
0010
0100
0010
,
1000
1000
0001
0001
,
1000
0001
1000
0001
,
0010
0010
0100
0100
,
0010
0100
0010
0100
,
1001
0100
0010
0100
0001
0100
1000
0010
,
1000
0100
0010
0100
0010
0000
0010
0000
,
0110
0001
1000
0100
1000
0001
1000
0010
,
0100
0010
0001
0010
0100
0001
0100
1000
,
0100
0100
0100
0100
,
0010
1000
0100
1000
0001
0100
0001
0010
,
0002
0000
0000
1000
0003
0000
0011
0000
,
1010
0000
0000
0000
0000
0000
0000
0010
,
1000
0010
0000
0100
0001
0100
0000
1000
,
0001
1000
0000
0100
0010
0100
0000
0100
,
0001
0010
0000
0100
1000
0010
0000
1000
,
0001
0010
0000
1000
0001
0010
0000
0001
,
0100
1000
0000
1000
0100
0001
0000
0010
,
1000
0100
0000
0010
0001
0100
0000
0001
,
1000
0100
0000
0001
1000
0100
0000
0000
,
1001
0000
0000
0000
0000
0000
0000
0010
,
1000
0010
0000
0100
0001
0100
0000
1000
,
0001
1000
0000
0100
0010
0100
0000
0100
,
0001
0010
0000
0100
1000
0010
0000
1000
,
0001
0010
0000
1000
0001
0010
0000
0001
,
0100
1000
0000
1000
0100
0001
0000
0010
,
1000
0100
0000
0010
0001
0100
0000
0001
,
1000
0100
0000
0001
1000
0100
0000
0000
,
1001
1000
0001
1000
0001
1000
0001
1000
,
0001
1000
0100
0010
0100
1000
0001
0000
,
0002
0000
0013
0200
0000
1300
0000
0000
,
0000
0010
1000
0010
0001
0010
1000
0000
,
1000
0100
1000
0100
0000
0100
0000
0000
,
0000
0001
0100
0010
0100
0010
0100
0000
,
0200
0000
0310
0002
0000
1003
0000
0000
,
1001
0000
0010
1000
0001
0100
0010
0000
,
1000
0010
0100
0010
1000
0010
0100
0000;

//---------------dance-single - ANOTHER----------------
#NOTES:
     dance-single:
     ANOTHER:
     medium:
     5:
     0.332,0.351,0.057,0.029,0.000,235.000,6.000,3.000,0.000,0.000:

0000
0000
0000
0000
,
0100
1000
0100
1000
0100
0000
0001
0000
,
0100
0000
0010
0000
0100
0001
0100
0000
,
0010
0000
0100
0000
0001
1000
0100
1000
,
0100
0010
0100
0010
0000
0010
0000
0000
,
0001
0000
1000
0000
0100
0001
0100
0001
,
0010
0000
0000
0010
0000
0000
0000
0000
,
0001
1100
0100
0000
0001
0000
0000
0000
,
0001
0001
0001
0001
0001
0001
1000
0000
,
0001
0000
0001
0000
0100
0000
0010
1000
,
0100
0000
0001
0000
0100
0000
0001
0100
,
1000
0001
0100
0001
,
0010
0001
0010
0001
0010
0000
0000
0000
,
1000
0100
0010
0000
,
0001
0000
1000
0100
0010
0000
0001
0000
,
0100
0100
0001
1000
,
0020
0000
0000
0000
,
0130
0100
0001
1000
,
0100
0000
0010
0100
0010
0001
0010
0001
,
0010
0001
0100
1000
,
0001
0000
1000
0100
0001
0100
1000
0000
,
0010
0100
0010
0000
,
0011
0000
1100
0010
,
0100
0000
0001
1000
,
0002
0000
0000
0000
,
0103
0000
0100
0000
0010
1000
0010
1000
,
0010
0100
0001
1000
,
0100
0000
0001
0000
0100
0010
0100
0000
,
0001
0000
0100
0000
0010
0000
0000
0100
,
1000
0000
0001
0000
0100
0000
0000
0010
,
0100
0001
0100
0010
,
0001
0000
0000
1000
0000
1000
0000
1000
,
0010
0000
0000
0000
,
1001
0100
0000
0001
,
0010
0001
0000
0100
,
0010
1000
0000
0100
,
0101
0000
1100
0000
,
0100
0010
0100
0000
,
0001
0010
0001
0100
0001
0010
0001
0100
,
0001
0000
0000
0000
,
0200
0000
0000
0000
,
0310
0001
1000
0100
,
0010
0000
0001
0100
,
0010
0000
0001
1000
,
0001
0000
1000
0001
1000
0001
1000
0000
,
0001
0000
0100
0000
,
0010
0000
1000
0000
0100
1000
0100
0000
,
0001
0000
0000
0100
0001
0000
0000
0100
,
0001
0000
0001
0000
0001
0001
0001
0001
,
1000
0000
0100
0000
0010
0000
0001
0010
,
0001
0000
0001
0100
0000
0001
0000
0000
,
0001
0000
0100
0001
1000
0001
0100
0000
,
0010
0100
0010
0010
0000
0010
0000
0000
,
0001
0000
1000
0000
0100
0010
0100
0000
,
0001
0000
1000
0001
0000
0001
0000
0000
,
0100
0000
0010
1000
0100
0001
0001
0000
,
0100
0100
1000
1000
0100
0100
0100
0000;

//---------------dance-single - BASIC----------------
#NOTES:
     dance-single:
     BASIC:
     easy:
     3:
     0.212,0.270,0.105,0.057,0.000,139.000,11.000,6.000,0.000,0.000:

0000
0000
0000
0000
,
1010
0000
0001
0000
,
0100
0000
0100
0000
,
0011
0000
1000
0000
,
0100
0000
0100
0000
,
0110
0000
0010
0000
,
1000
0000
0001
1000
,
0001
0000
0001
1000
,
0100
0010
0100
0110
,
0100
0001
1000
0000
,
0100
0010
0100
0000
,
0001
0100
1000
0010
,
1000
0100
1000
1001
,
0001
0000
0100
0000
,
0010
0001
0000
0010
,
0001
0000
0010
0001
,
0001
0000
0000
0000
,
1001
0000
0100
0000
,
0010
1000
0100
0000
,
0001
0000
0100
0000
,
0010
0100
0010
0000
,
1000
0001
0000
0100
,
0010
0000
0010
0100
,
0100
0000
0010
0000
,
1001
0000
0000
0110
,
0110
0001
1000
0100
,
0001
0000
0001
0100
,
1000
0000
1000
0100
,
0001
0000
0001
0100
,
1000
0000
1000
0100
,
0001
0000
0001
0100
,
1000
0000
0010
0000
,
1000
0000
0000
0000
,
0002
0000
0000
0000
,
1000
0000
0010
0000
,
0100
0000
0000
0000
,
2000
0000
0000
3003
,
0010
0100
0000
0001
,
1000
0000
0010
0000
,
0200
0000
0000
0300
,
0010
0000
0000
0000
,
0101
0001
1000
0000
,
0100
0010
0001
0000
,
0010
0000
1000
0000
,
0001
0100
0100
0000
,
1000
0000
0001
0000
,
1000
0000
0001
0000
,
2002
0000
0000
0000
,
0000
0000
0000
3003
,
0001
0010
0001
0010
,
1000
0000
1000
0000
,
0010
1000
0010
1000
,
0001
0100
0001
0000
,
0001
0010
1000
0010
,
0001
0000
0001
0000
,
1000
0100
0010
0100
,
0001
2000
0000
3001;
